音响中国全面代理优秀HIFI器材,欢迎大家关注和选购。

音响中国论坛——专业音响技术社区!

 找回密码
 入住

QQ登录

只需一步,快速开始

扫一扫,访问微社区

查看: 3606|回复: 49
收起左侧

[分享] 过年听的好音乐-----民乐合奏《喜洋洋》

  [复制链接]
字体大小: 正常 放大

6

主题

195

帖子

6895

积分

上尉

Rank: 5Rank: 5

积分
6895
发表于 2014-1-29 14:22:49 | 显示全部楼层 |阅读模式
商城广告

请支持我们做的更好,轻松注册!

您需要 登录 才可以下载或查看,没有帐号?入住

x
以前在HIFAIDIY论坛那里发过,现在在这里奉献给好朋友,希望在节日里给大家带去一份喜悦.......这张碟是我亲手抓的轨,音质会有保证,请朋友放心下载
                                           专辑名称:喜洋洋  
                                                                唱片公司:广州新时代影音公司
                                                                发行时间:2000年
                                                                唱片编号:ISRC CN-F21-00-349-00/AJ6
                                                                资源类型:WAV整轨





                                                             曲目:1.春江花月夜
                                                                                                      2.紫竹调
                                                                                                      3.金蛇狂舞
                                                                                                     4.孔雀开屏
                                                                                                      5.得胜令
                                                                                                      6.梅花三弄
                                                                                                      7.刮地风
                                                                                                      8.翠湖春晓
                                                                                                     9.采茶灯
                                                                                                   10.喜洋洋
                                                                                                   11.赛龙夺锦
                                                                                                   12.龙飞凤舞
                                                                                                   13.旱天雷
                                                                                                   14.彩云追月
                                                                                                   15.月儿高
............................................................................................................................................................................................................
Exact Audio Copy V1.0 beta 3 from 29. August 2011

EAC 抓取日志文件从18. 九月 2013, 19:12

未知艺术家 / 未知标题

使用驱动器  :TEAC    CD-W540E   Adapter: 0  ID: 0

读取模式      : 可靠Secure
使用精确流     : 是
清空音频缓存    : 是
使用 C2 指示器 : 否

组合读写偏移校正:             : 656
读取 Lead-In 和 Lead-Out : 否
用静音填充抓取中丢失偏移的采样       : 是
去除首尾静音块               : 否
在CRC 计算中使用了空样本       : 是
已用接口                  : Win NT 及 2000 本地 Win32 接口

所用输出模式: : 内部 WAV 函数
样本格式    : 44.100 Hz; 16 Bit; 立体声


已抓取 CD 的 TOC

     音轨 |    起始    |    长度    |  起始扇区  |  结束扇区  
    --------------------------------------------
      1 |  0:00.01 | 12:02.53 |      1 |  54203
      2 | 12:02.54 |  3:19.54 |  54204 |  69182
      3 | 15:22.33 |  2:32.15 |  69183 |  80597
      4 | 17:54.48 |  7:11.62 |  80598 | 112984
      5 | 25:06.35 |  3:01.12 | 112985 | 126571
      6 | 28:07.47 |  8:49.26 | 126572 | 166272
      7 | 36:56.73 |  3:20.21 | 166273 | 181293
      8 | 40:17.19 |  4:06.69 | 181294 | 199812
      9 | 44:24.13 |  4:44.69 | 199813 | 221181
     10 | 49:09.07 |  2:32.51 | 221182 | 232632
     11 | 51:41.58 |  3:29.04 | 232633 | 248311
     12 | 55:10.62 |  2:37.62 | 248312 | 260148
     13 | 57:48.49 |  2:43.50 | 260149 | 272423
     14 | 60:32.24 |  3:36.33 | 272424 | 288656
     15 | 64:08.57 |  5:34.31 | 288657 | 313737


范围状态及错误

已选择范围

     文件名 E:\My Music\抓轨\民乐合奏-喜洋洋\未知艺术家 - 未知标题.wav

     峰值电平 82.3 %
     抓取速度 8.8 X
     范围质量 100.0 %
     复制 CRC 6A2A0CA8
     复制成功

没有错误发生

状态报告结尾
--------------------------------------------------------------------------------------------------------------------------------------------------------------------

下载地址及提取码
游客,如果您要查看本帖隐藏内容请回复











0

主题

9

帖子

685

积分

士兵

Rank: 1

积分
685
发表于 2014-1-29 23:35:21 | 显示全部楼层
喜欢,欣赏

0

主题

14

帖子

262

积分

士兵

Rank: 1

积分
262
发表于 2014-2-1 01:02:27 | 显示全部楼层

0

主题

5

帖子

76

积分

士兵

Rank: 1

积分
76
发表于 2014-2-8 17:21:32 | 显示全部楼层

4

主题

522

帖子

8765

积分

上尉

Rank: 5Rank: 5

积分
8765
发表于 2014-2-8 21:28:53 | 显示全部楼层
好乐曲,谢谢收藏了。

0

主题

1

帖子

34

积分

士兵

Rank: 1

积分
34
发表于 2014-2-12 11:51:53 | 显示全部楼层
首首都是最经典的民乐啊!谢谢分享!

0

主题

3

帖子

49

积分

士兵

Rank: 1

积分
49
发表于 2014-2-19 16:54:45 | 显示全部楼层
好听,不错不错。

1

主题

41

帖子

744

积分

士兵

Rank: 1

积分
744
发表于 2014-2-25 16:10:03 | 显示全部楼层
听听中国的老曲子,静 静的来享受

176

主题

2735

帖子

5万

积分

上校

Rank: 8Rank: 8

积分
59049
发表于 2014-4-5 13:27:26 | 显示全部楼层
大多都是些廣東音樂 加些地水南音是否更有味

0

主题

4

帖子

61

积分

士兵

Rank: 1

积分
61
发表于 2014-5-11 00:44:31 | 显示全部楼层
谢谢分享,

2

主题

25

帖子

472

积分

士兵

Rank: 1

积分
472
发表于 2014-8-5 17:35:32 | 显示全部楼层
比较喜欢

1

主题

39

帖子

1677

积分

士官

Rank: 2Rank: 2

积分
1677
发表于 2014-9-20 17:10:48 | 显示全部楼层
很好,多多放来,谢谢!

0

主题

13

帖子

225

积分

士兵

Rank: 1

积分
225
发表于 2014-10-27 10:37:32 | 显示全部楼层
谢谢分享!

0

主题

3

帖子

53

积分

士兵

Rank: 1

积分
53
发表于 2014-10-29 18:58:27 | 显示全部楼层

0

主题

1

帖子

27

积分

士兵

Rank: 1

积分
27
发表于 2014-11-3 10:59:38 | 显示全部楼层
  文件名 E:\My Music\抓轨\民乐合奏-喜洋洋\未知艺术家 - 未知标题

0

主题

24

帖子

311

积分

士兵

Rank: 1

积分
311
发表于 2014-12-10 14:56:14 | 显示全部楼层
谢谢楼主分享

0

主题

1

帖子

31

积分

士兵

Rank: 1

积分
31
发表于 2015-1-5 17:34:38 | 显示全部楼层
快过年了,谢谢楼主分享

0

主题

2

帖子

46

积分

士兵

Rank: 1

积分
46
发表于 2015-1-7 11:57:46 | 显示全部楼层
过年听的好音乐-----民乐合奏《喜洋洋》 [[url=]修[/url]

0

主题

1

帖子

33

积分

士兵

Rank: 1

积分
33
发表于 2015-1-21 15:27:34 | 显示全部楼层
下载看看,谢谢

9

主题

459

帖子

6945

积分

上尉

Rank: 5Rank: 5

积分
6945
发表于 2015-1-21 16:11:16 | 显示全部楼层
好乐曲,谢谢收藏了。
您需要登录后才可以回帖 登录 | 入住

本版积分规则

| 小黑屋|手机版|音响中国 (鄂ICP备11004611号) 武汉百维科技有限公司 营业执照注册号:420104000057861 联系我们

GMT+8, 2017-9-20 18:49 , Processed in 0.829079 second(s), 29 queries .  

Powered by 音响中国  

© 2001-2013 Audio-auido.Cn & Audio-audio.Com

快速回复 返回顶部 返回列表